osu file format v14

[General]
AudioFilename: -SHADOW OF MEMORIES Alstroemeria Records.mp3
AudioLeadIn: 1500
PreviewTime: -1
Countdown: 1
SampleSet: Normal
StackLeniency: 0.7
Mode: 3
LetterboxInBreaks: 1
WidescreenStoryboard: 0

[Editor]
DistanceSpacing: 1.6
BeatDivisor: 4
GridSize: 8
TimelineZoom: 1

[Metadata]
Title:Yuzhara Pack2
TitleUnicode:Yuzhara Pack2
Artist:Yuzhara
ArtistUnicode:Yuzhara
Creator:Yuzhara
Version:SHADOW OF MEMORIES Alstroemeria Records[Challenge]
Source:
Tags:
BeatmapID:806033
BeatmapSetID:359242

[Difficulty]
HPDrainRate:8
CircleSize:4
OverallDifficulty:8
ApproachRate:5
SliderMultiplier:1.4
SliderTickRate:1

[Events]
//Background and Video events
0,0,"20120314142656.jpg",0,0
//Break Periods
//Storyboard Layer 0 (Background)
//Storyboard Layer 1 (Fail)
//Storyboard Layer 2 (Pass)
//Storyboard Layer 3 (Foreground)
//Storyboard Sound Samples

[TimingPoints]
0,468.75,4,1,0,0,1,0

[HitObjects]
64,192,117,5,0,0:0:0:0:
192,192,117,1,0,0:0:0:0:
320,192,117,1,0,0:0:0:0:
448,192,117,1,0,0:0:0:0:
448,192,234,1,0,0:0:0:0:
64,192,292,1,0,0:0:0:0:
192,192,351,1,0,0:0:0:0:
320,192,468,1,0,0:0:0:0:
320,192,585,1,0,0:0:0:0:
448,192,585,1,0,0:0:0:0:
64,192,585,1,0,0:0:0:0:
192,192,585,1,0,0:0:0:0:
64,192,703,1,0,0:0:0:0:
448,192,761,1,0,0:0:0:0:
320,192,820,1,0,0:0:0:0:
192,192,878,1,0,0:0:0:0:
448,192,937,1,0,0:0:0:0:
320,192,1054,1,0,0:0:0:0:
448,192,1054,1,0,0:0:0:0:
64,192,1054,1,0,0:0:0:0:
192,192,1054,1,0,0:0:0:0:
64,192,1171,1,0,0:0:0:0:
320,192,1230,1,0,0:0:0:0:
192,192,1289,1,0,0:0:0:0:
64,192,1347,1,0,0:0:0:0:
320,192,1406,1,0,0:0:0:0:
192,192,1523,1,0,0:0:0:0:
64,192,1523,1,0,0:0:0:0:
320,192,1523,1,0,0:0:0:0:
448,192,1523,1,0,0:0:0:0:
192,192,1640,1,0,0:0:0:0:
448,192,1699,1,0,0:0:0:0:
320,192,1757,1,0,0:0:0:0:
64,192,1816,1,0,0:0:0:0:
448,192,1875,1,0,0:0:0:0:
448,192,1992,1,0,0:0:0:0:
320,192,1992,1,0,0:0:0:0:
192,192,1992,1,0,0:0:0:0:
64,192,1992,1,0,0:0:0:0:
192,192,2109,1,0,0:0:0:0:
320,192,2167,1,0,0:0:0:0:
448,192,2226,1,0,0:0:0:0:
192,192,2285,1,0,0:0:0:0:
64,192,2343,1,0,0:0:0:0:
192,192,2460,1,0,0:0:0:0:
64,192,2460,1,0,0:0:0:0:
320,192,2460,1,0,0:0:0:0:
448,192,2460,1,0,0:0:0:0:
448,192,2578,1,0,0:0:0:0:
64,192,2636,1,0,0:0:0:0:
192,192,2695,1,0,0:0:0:0:
320,192,2753,1,0,0:0:0:0:
64,192,2812,1,0,0:0:0:0:
64,192,2929,1,0,0:0:0:0:
192,192,2929,1,0,0:0:0:0:
320,192,2929,1,0,0:0:0:0:
448,192,2929,1,0,0:0:0:0:
448,192,3046,1,0,0:0:0:0:
192,192,3105,1,0,0:0:0:0:
320,192,3164,1,0,0:0:0:0:
448,192,3222,1,0,0:0:0:0:
192,192,3281,1,0,0:0:0:0:
192,192,3398,1,0,0:0:0:0:
64,192,3398,1,0,0:0:0:0:
320,192,3398,1,0,0:0:0:0:
448,192,3398,1,0,0:0:0:0:
320,192,3515,1,0,0:0:0:0:
64,192,3574,1,0,0:0:0:0:
192,192,3632,1,0,0:0:0:0:
320,192,3691,1,0,0:0:0:0:
448,192,3750,1,0,0:0:0:0:
448,192,3867,1,0,0:0:0:0:
320,192,3867,1,0,0:0:0:0:
192,192,3867,1,0,0:0:0:0:
64,192,3867,1,0,0:0:0:0:
64,192,3984,1,0,0:0:0:0:
448,192,4042,1,0,0:0:0:0:
192,192,4101,1,0,0:0:0:0:
64,192,4160,1,0,0:0:0:0:
320,192,4218,1,0,0:0:0:0:
64,192,4335,1,0,0:0:0:0:
192,192,4335,1,0,0:0:0:0:
320,192,4335,1,0,0:0:0:0:
448,192,4335,1,0,0:0:0:0:
192,192,4453,1,0,0:0:0:0:
448,192,4511,1,0,0:0:0:0:
320,192,4570,1,0,0:0:0:0:
192,192,4628,1,0,0:0:0:0:
64,192,4687,1,0,0:0:0:0:
64,192,4804,1,0,0:0:0:0:
192,192,4804,1,0,0:0:0:0:
320,192,4804,1,0,0:0:0:0:
448,192,4804,1,0,0:0:0:0:
448,192,4921,1,0,0:0:0:0:
64,192,4980,1,0,0:0:0:0:
320,192,5039,1,0,0:0:0:0:
448,192,5097,1,0,0:0:0:0:
192,192,5156,1,0,0:0:0:0:
64,192,5273,1,0,0:0:0:0:
192,192,5273,1,0,0:0:0:0:
320,192,5273,1,0,0:0:0:0:
448,192,5273,1,0,0:0:0:0:
64,192,5390,1,0,0:0:0:0:
320,192,5449,1,0,0:0:0:0:
192,192,5507,1,0,0:0:0:0:
64,192,5566,1,0,0:0:0:0:
448,192,5625,1,0,0:0:0:0:
64,192,5742,1,0,0:0:0:0:
192,192,5742,1,0,0:0:0:0:
320,192,5742,1,0,0:0:0:0:
448,192,5742,1,0,0:0:0:0:
64,192,5859,1,0,0:0:0:0:
320,192,5917,1,0,0:0:0:0:
448,192,5976,1,0,0:0:0:0:
192,192,6035,1,0,0:0:0:0:
320,192,6093,1,0,0:0:0:0:
192,192,6210,1,0,0:0:0:0:
64,192,6210,1,0,0:0:0:0:
320,192,6210,1,0,0:0:0:0:
448,192,6210,1,0,0:0:0:0:
192,192,6328,1,0,0:0:0:0:
448,192,6386,1,0,0:0:0:0:
320,192,6445,1,0,0:0:0:0:
192,192,6503,1,0,0:0:0:0:
64,192,6562,1,0,0:0:0:0:
64,192,6679,1,0,0:0:0:0:
192,192,6679,1,0,0:0:0:0:
320,192,6679,1,0,0:0:0:0:
448,192,6679,1,0,0:0:0:0:
448,192,6796,1,0,0:0:0:0:
64,192,6835,1,0,0:0:0:0:
192,192,6875,1,0,0:0:0:0:
320,192,6914,1,0,0:0:0:0:
192,192,7031,1,0,0:0:0:0:
64,192,7148,1,0,0:0:0:0:
192,192,7148,1,0,0:0:0:0:
320,192,7148,1,0,0:0:0:0:
448,192,7148,1,0,0:0:0:0:
448,192,7265,1,0,0:0:0:0:
64,192,7324,1,0,0:0:0:0:
320,192,7382,1,0,0:0:0:0:
448,192,7421,1,0,0:0:0:0:
192,192,7500,1,0,0:0:0:0:
64,192,7617,1,0,0:0:0:0:
192,192,7617,1,0,0:0:0:0:
320,192,7617,1,0,0:0:0:0:
448,192,7617,1,0,0:0:0:0:
320,192,7734,1,0,0:0:0:0:
64,192,7792,1,0,0:0:0:0:
192,192,7851,1,0,0:0:0:0:
320,192,7910,1,0,0:0:0:0:
448,192,7968,1,0,0:0:0:0:
64,192,8085,1,0,0:0:0:0:
192,192,8085,1,0,0:0:0:0:
320,192,8085,1,0,0:0:0:0:
448,192,8085,1,0,0:0:0:0:
64,192,8203,1,0,0:0:0:0:
448,192,8261,1,0,0:0:0:0:
320,192,8320,1,0,0:0:0:0:
192,192,8378,1,0,0:0:0:0:
448,192,8437,1,0,0:0:0:0:
64,192,8554,1,0,0:0:0:0:
192,192,8554,1,0,0:0:0:0:
320,192,8554,1,0,0:0:0:0:
448,192,8554,1,0,0:0:0:0:
64,192,8671,1,0,0:0:0:0:
448,192,8730,1,0,0:0:0:0:
320,192,8789,1,0,0:0:0:0:
64,192,8847,1,0,0:0:0:0:
192,192,8906,1,0,0:0:0:0:
64,192,9023,1,0,0:0:0:0:
192,192,9023,1,0,0:0:0:0:
320,192,9023,1,0,0:0:0:0:
448,192,9023,1,0,0:0:0:0:
320,192,9140,1,0,0:0:0:0:
64,192,9199,1,0,0:0:0:0:
448,192,9257,1,0,0:0:0:0:
320,192,9316,1,0,0:0:0:0:
192,192,9375,1,0,0:0:0:0:
64,192,9492,1,0,0:0:0:0:
192,192,9492,1,0,0:0:0:0:
320,192,9492,1,0,0:0:0:0:
448,192,9492,1,0,0:0:0:0:
448,192,9609,1,0,0:0:0:0:
64,192,9667,1,0,0:0:0:0:
192,192,9726,1,0,0:0:0:0:
448,192,9785,1,0,0:0:0:0:
320,192,9843,1,0,0:0:0:0:
64,192,9960,1,0,0:0:0:0:
192,192,9960,1,0,0:0:0:0:
320,192,9960,1,0,0:0:0:0:
448,192,9960,1,0,0:0:0:0:
64,192,10078,1,0,0:0:0:0:
192,192,10136,1,0,0:0:0:0:
320,192,10195,1,0,0:0:0:0:
64,192,10253,1,0,0:0:0:0:
448,192,10312,1,0,0:0:0:0:
64,192,10429,1,0,0:0:0:0:
192,192,10429,1,0,0:0:0:0:
320,192,10429,1,0,0:0:0:0:
448,192,10429,1,0,0:0:0:0:
64,192,10546,1,0,0:0:0:0:
448,192,10605,1,0,0:0:0:0:
320,192,10664,1,0,0:0:0:0:
64,192,10722,1,0,0:0:0:0:
192,192,10781,1,0,0:0:0:0:
192,192,10898,1,0,0:0:0:0:
64,192,10898,1,0,0:0:0:0:
320,192,10898,1,0,0:0:0:0:
448,192,10898,1,0,0:0:0:0:
320,192,11015,1,0,0:0:0:0:
448,192,11074,1,0,0:0:0:0:
192,192,11132,1,0,0:0:0:0:
320,192,11191,1,0,0:0:0:0:
64,192,11250,1,0,0:0:0:0:
64,192,11367,1,0,0:0:0:0:
192,192,11367,1,0,0:0:0:0:
320,192,11367,1,0,0:0:0:0:
448,192,11367,1,0,0:0:0:0:
448,192,11484,1,0,0:0:0:0:
64,192,11542,1,0,0:0:0:0:
192,192,11601,1,0,0:0:0:0:
448,192,11660,1,0,0:0:0:0:
320,192,11718,1,0,0:0:0:0:
64,192,11835,1,0,0:0:0:0:
192,192,11835,1,0,0:0:0:0:
320,192,11835,1,0,0:0:0:0:
448,192,11835,1,0,0:0:0:0:
64,192,11953,1,0,0:0:0:0:
320,192,12011,1,0,0:0:0:0:
192,192,12070,1,0,0:0:0:0:
64,192,12128,1,0,0:0:0:0:
448,192,12187,1,0,0:0:0:0:
64,192,12304,1,0,0:0:0:0:
192,192,12304,1,0,0:0:0:0:
320,192,12304,1,0,0:0:0:0:
448,192,12304,1,0,0:0:0:0:
192,192,12421,1,0,0:0:0:0:
320,192,12480,1,0,0:0:0:0:
64,192,12539,1,0,0:0:0:0:
192,192,12597,1,0,0:0:0:0:
320,192,12656,1,0,0:0:0:0:
64,192,12773,1,0,0:0:0:0:
192,192,12773,1,0,0:0:0:0:
320,192,12773,1,0,0:0:0:0:
448,192,12773,1,0,0:0:0:0:
448,192,12890,1,0,0:0:0:0:
64,192,12949,1,0,0:0:0:0:
320,192,13007,1,0,0:0:0:0:
448,192,13066,1,0,0:0:0:0:
192,192,13125,1,0,0:0:0:0:
192,192,13242,1,0,0:0:0:0:
320,192,13242,1,0,0:0:0:0:
448,192,13242,1,0,0:0:0:0:
64,192,13242,1,0,0:0:0:0:
64,192,13359,1,0,0:0:0:0:
320,192,13417,1,0,0:0:0:0:
192,192,13476,1,0,0:0:0:0:
64,192,13535,1,0,0:0:0:0:
448,192,13593,1,0,0:0:0:0:
192,192,13710,1,0,0:0:0:0:
64,192,13710,1,0,0:0:0:0:
320,192,13710,1,0,0:0:0:0:
448,192,13710,1,0,0:0:0:0:
64,192,13828,1,0,0:0:0:0:
320,192,13886,1,0,0:0:0:0:
192,192,13945,1,0,0:0:0:0:
448,192,14003,1,0,0:0:0:0:
320,192,14062,1,0,0:0:0:0:
64,192,14179,1,0,0:0:0:0:
192,192,14179,1,0,0:0:0:0:
320,192,14179,1,0,0:0:0:0:
448,192,14179,1,0,0:0:0:0:
448,192,14296,1,0,0:0:0:0:
192,192,14355,1,0,0:0:0:0:
64,192,14414,1,0,0:0:0:0:
320,192,14472,1,0,0:0:0:0:
192,192,14531,1,0,0:0:0:0:
64,192,14648,1,0,0:0:0:0:
192,192,14648,1,0,0:0:0:0:
320,192,14648,1,0,0:0:0:0:
448,192,14648,1,0,0:0:0:0:
320,192,14765,1,0,0:0:0:0:
